Forum: Wishes and new features

Features you would like to see in VirtualDJ
Topic: .mp3 + .cue files

This topic is old and might contain outdated or incorrect information.

not sure if this has been asked already, but...
im ripping some of my mixed compilation cds, and i have one 74min MP3 and a matching .cue file

i would like it if vdj could read a matching .cue file and automaticaly create cues in virtualdj for the individual tunes in the mix..

as far as i can see the .cue files is always formatted like this..

PERFORMER "VA"
TITLE "Funky House Classics"
FILE "VA - Funky House Classics CD 1 - 01 - Funky House Classics 2010.mp3" MP3
TRACK 01 AUDIO
TITLE "Intro"
PERFORMER "Alan Braxe & Fred Falke"
INDEX 01 00:00:00
TRACK 02 AUDIO
TITLE "Soul Heaven - Bini & Martini Mix"
PERFORMER "Goodfellas"
INDEX 01 03:40:03
TRACK 03 AUDIO
TITLE "Rise - Bini & Martini Mix"
PERFORMER "Soul Providers"
INDEX 01 09:00:03

Posted Thu 11 Mar 10 @ 8:06 pm
glenskiPRO InfinityMember since 2011
Hello

I second this option to - as PCDJ allows this, so why does VDJ not ?

I have many mixed cd's ripped as 1 track mp3 and .cue file, surly this feature can be added to VDJ ?

Thanks in advance

Glenski

Posted Thu 10 Feb 11 @ 6:42 pm


(Old topics and forums are automatically closed)